osu file format v14

[General]
AudioFilename: Bendera - Coklat Band .mp3
AudioLeadIn: 1500
PreviewTime: -1
Countdown: 1
SampleSet: Normal
StackLeniency: 0.6
Mode: 0
LetterboxInBreaks: 1
WidescreenStoryboard: 1

[Editor]
DistanceSpacing: 0.8
BeatDivisor: 6
GridSize: 4
TimelineZoom: 1

[Metadata]
Title:Bendera
TitleUnicode:Bendera
Artist:Cokelat
ArtistUnicode:Cokelat
Creator:King Of Legger
Version:Merah Putih ! ! !
Source:[Heart and soul For My Indonesia][Lyric: @Nurlina Arfah][Beatmap By: King Of Legger][From: YouTube]
Tags:
BeatmapID:789306
BeatmapSetID:358972

[Difficulty]
HPDrainRate:5
CircleSize:4
OverallDifficulty:5
ApproachRate:5
SliderMultiplier:1.4
SliderTickRate:1

[Events]
//Background and Video events
0,0,"cr__merah_putih_by_bamboospear.jpg",0,0
Video,0,"Bendera - Coklat Band .avi",0,0
//Break Periods
//Storyboard Layer 0 (Background)
//Storyboard Layer 1 (Fail)
//Storyboard Layer 2 (Pass)
//Storyboard Layer 3 (Foreground)
//Storyboard Sound Samples

[TimingPoints]
0,387.096774193548,4,1,0,100,1,0

[Colours]
Combo1 : 255,255,255
Combo2 : 255,0,0

[HitObjects]
448,192,451,5,0,0:0:0:0:
64,192,903,5,0,0:0:0:0:
320,192,1096,5,0,0:0:0:0:
448,192,1612,5,0,0:0:0:0:
320,192,1741,5,0,0:0:0:0:
192,192,2064,5,0,0:0:0:0:
320,192,2451,5,0,0:0:0:0:
448,192,2580,5,0,0:0:0:0:
448,192,3161,5,0,0:0:0:0:
320,192,3354,5,0,0:0:0:0:
192,192,3548,5,0,0:0:0:0:
192,192,3935,5,0,0:0:0:0:
64,192,4129,5,0,0:0:0:0:
192,192,4645,5,0,0:0:0:0:
320,192,4838,5,0,0:0:0:0:
448,192,5161,5,0,0:0:0:0:
192,192,5483,5,0,0:0:0:0:
64,192,5677,5,0,0:0:0:0:
448,192,6322,5,0,0:0:0:0:
64,192,6451,5,0,0:0:0:0:
320,192,6645,5,0,0:0:0:0:
192,192,6774,5,0,0:0:0:0:
192,192,6967,5,0,0:0:0:0:
64,192,7225,5,0,0:0:0:0:
448,192,7806,5,0,0:0:0:0:
64,192,7999,5,0,0:0:0:0:
192,192,8193,5,0,0:0:0:0:
320,192,8387,5,0,0:0:0:0:
320,192,8580,5,0,0:0:0:0:
64,192,8709,5,0,0:0:0:0:
192,192,9354,5,0,0:0:0:0:
64,192,9483,5,0,0:0:0:0:
192,192,9612,5,0,0:0:0:0:
320,192,9741,5,0,0:0:0:0:
448,192,10064,5,0,0:0:0:0:
192,192,10258,5,0,0:0:0:0:
64,192,10838,5,0,0:0:0:0:
192,192,11032,5,0,0:0:0:0:
320,192,11225,5,0,0:0:0:0:
320,192,11612,5,0,0:0:0:0:
192,192,11806,5,0,0:0:0:0:
320,192,11999,5,0,0:0:0:0:
448,192,12193,5,0,0:0:0:0:
64,192,12451,5,0,0:0:0:0:
192,192,12516,5,0,0:0:0:0:
448,192,12774,5,0,0:0:0:0:
292,192,12967,6,0,L|200:192,1,70,,,0:0:0:0:
256,192,13354,12,0,25354,0:0:0:0:
64,192,25741,5,0,0:0:0:0:
192,192,26129,5,0,0:0:0:0:
192,192,26322,5,0,0:0:0:0:
448,192,26516,5,0,0:0:0:0:
192,192,26709,5,0,0:0:0:0:
64,192,27096,5,0,0:0:0:0:
448,192,27225,5,0,0:0:0:0:
64,192,27612,5,0,0:0:0:0:
64,192,27806,5,0,0:0:0:0:
448,192,27999,5,0,0:0:0:0:
320,192,28322,5,0,0:0:0:0:
64,192,28451,5,0,0:0:0:0:
448,192,28838,5,0,0:0:0:0:
64,192,29161,5,0,0:0:0:0:
64,192,29354,5,0,0:0:0:0:
448,192,29548,5,0,0:0:0:0:
320,192,29741,5,0,0:0:0:0:
448,192,30129,5,0,0:0:0:0:
64,192,30322,5,0,0:0:0:0:
192,192,30709,5,0,0:0:0:0:
192,192,30967,5,0,0:0:0:0:
448,192,31096,5,0,0:0:0:0:
320,192,31419,5,0,0:0:0:0:
192,192,31483,5,0,0:0:0:0:
192,192,31870,5,0,0:0:0:0:
320,192,32193,5,0,0:0:0:0:
320,192,32387,5,0,0:0:0:0:
64,192,32645,5,0,0:0:0:0:
448,192,32838,5,0,0:0:0:0:
320,192,33225,5,0,0:0:0:0:
448,192,33419,5,0,0:0:0:0:
192,192,33806,5,0,0:0:0:0:
192,192,33999,5,0,0:0:0:0:
64,192,34193,5,0,0:0:0:0:
448,192,34387,5,0,0:0:0:0:
320,192,34451,5,0,0:0:0:0:
192,192,34516,5,0,0:0:0:0:
192,192,34967,5,0,0:0:0:0:
320,192,35290,5,0,0:0:0:0:
448,192,35483,5,0,0:0:0:0:
64,192,35677,5,0,0:0:0:0:
320,192,35870,5,0,0:0:0:0:
448,192,36258,5,0,0:0:0:0:
192,192,36451,5,0,0:0:0:0:
64,192,36516,5,0,0:0:0:0:
192,192,36645,5,0,0:0:0:0:
320,192,36774,5,0,0:0:0:0:
448,192,36903,5,0,0:0:0:0:
364,124,36967,2,0,L|240:124,1,116.666666666667,,,0:0:0:0:
132,264,37419,2,0,L|328:264,1,186.666666666667,,,0:0:0:0:
192,192,37999,5,0,0:0:0:0:
64,192,38387,5,0,0:0:0:0:
192,192,38580,5,0,0:0:0:0:
448,192,38709,5,0,0:0:0:0:
192,192,38903,5,0,0:0:0:0:
320,192,39354,5,0,0:0:0:0:
448,192,39548,5,0,0:0:0:0:
64,192,39935,5,0,0:0:0:0:
448,192,40129,5,0,0:0:0:0:
192,192,40322,5,0,0:0:0:0:
448,192,40645,5,0,0:0:0:0:
320,192,40709,5,0,0:0:0:0:
192,192,40774,5,0,0:0:0:0:
64,192,41096,5,0,0:0:0:0:
320,192,41354,5,0,0:0:0:0:
448,192,41483,5,0,0:0:0:0:
320,192,41677,5,0,0:0:0:0:
64,192,41870,5,0,0:0:0:0:
320,192,42064,5,0,0:0:0:0:
448,192,42387,5,0,0:0:0:0:
192,192,42580,5,0,0:0:0:0:
320,192,43032,5,0,0:0:0:0:
448,192,43225,5,0,0:0:0:0:
64,192,43354,5,0,0:0:0:0:
320,192,43806,5,0,0:0:0:0:
448,192,44129,5,0,0:0:0:0:
192,192,44580,5,0,0:0:0:0:
64,192,44774,5,0,0:0:0:0:
448,192,44903,5,0,0:0:0:0:
192,192,45161,5,0,0:0:0:0:
320,192,45483,5,0,0:0:0:0:
64,192,45677,5,0,0:0:0:0:
320,192,46064,5,0,0:0:0:0:
448,192,46258,5,0,0:0:0:0:
64,192,46451,5,0,0:0:0:0:
192,192,46709,5,0,0:0:0:0:
320,192,46838,5,0,0:0:0:0:
448,192,46967,5,0,0:0:0:0:
64,192,47225,5,0,0:0:0:0:
320,192,47612,5,0,0:0:0:0:
448,192,47806,5,0,0:0:0:0:
64,192,47999,5,0,0:0:0:0:
448,192,48580,5,0,0:0:0:0:
64,192,48774,5,0,0:0:0:0:
192,192,48967,5,0,0:0:0:0:
448,192,49161,5,0,0:0:0:0:
192,192,49354,5,0,0:0:0:0:
256,192,49548,12,0,55354,0:0:0:0:
192,192,55548,5,0,0:0:0:0:
448,192,55935,5,0,0:0:0:0:
64,192,56258,5,0,0:0:0:0:
320,192,56451,5,0,0:0:0:0:
64,192,57032,5,0,0:0:0:0:
448,192,57225,5,0,0:0:0:0:
320,192,57419,5,0,0:0:0:0:
192,192,57612,5,0,0:0:0:0:
64,192,57806,5,0,0:0:0:0:
448,192,57999,5,0,0:0:0:0:
192,192,58387,5,0,0:0:0:0:
64,192,58580,5,0,0:0:0:0:
448,192,58774,5,0,0:0:0:0:
64,192,58967,5,0,0:0:0:0:
192,192,59032,5,0,0:0:0:0:
320,192,59096,5,0,0:0:0:0:
320,192,59548,5,0,0:0:0:0:
192,192,59935,5,0,0:0:0:0:
320,192,60129,5,0,0:0:0:0:
64,192,60322,5,0,0:0:0:0:
448,192,60516,5,0,0:0:0:0:
320,192,60903,5,0,0:0:0:0:
64,192,61096,5,0,0:0:0:0:
320,192,61483,5,0,0:0:0:0:
192,192,61677,5,0,0:0:0:0:
448,192,61870,5,0,0:0:0:0:
192,192,62064,5,0,0:0:0:0:
320,192,62129,5,0,0:0:0:0:
64,192,62258,5,0,0:0:0:0:
320,192,62645,5,0,0:0:0:0:
64,192,63032,5,0,0:0:0:0:
448,192,63225,5,0,0:0:0:0:
192,192,63419,5,0,0:0:0:0:
448,192,63677,5,0,0:0:0:0:
64,192,63999,5,0,0:0:0:0:
320,192,64193,5,0,0:0:0:0:
64,192,64580,5,0,0:0:0:0:
192,192,64774,5,0,0:0:0:0:
64,192,64967,5,0,0:0:0:0:
192,192,65161,5,0,0:0:0:0:
320,192,65225,5,0,0:0:0:0:
448,192,65290,5,0,0:0:0:0:
192,192,65741,5,0,0:0:0:0:
320,192,66129,5,0,0:0:0:0:
192,192,66322,5,0,0:0:0:0:
64,192,66516,5,0,0:0:0:0:
448,192,66709,5,0,0:0:0:0:
192,192,67096,5,0,0:0:0:0:
64,192,67290,5,0,0:0:0:0:
192,192,67677,5,0,0:0:0:0:
448,192,67870,5,0,0:0:0:0:
320,192,67999,5,0,0:0:0:0:
192,192,68129,5,0,0:0:0:0:
64,192,68258,5,0,0:0:0:0:
448,192,68387,5,0,0:0:0:0:
320,192,68774,5,0,0:0:0:0:
192,192,69161,5,0,0:0:0:0:
320,192,69354,5,0,0:0:0:0:
448,192,69548,5,0,0:0:0:0:
64,192,69741,5,0,0:0:0:0:
320,192,70129,5,0,0:0:0:0:
192,192,70387,5,0,0:0:0:0:
448,192,70774,5,0,0:0:0:0:
320,192,70903,5,0,0:0:0:0:
64,192,71096,5,0,0:0:0:0:
320,192,71290,5,0,0:0:0:0:
192,192,71483,5,0,0:0:0:0:
448,192,71870,5,0,0:0:0:0:
64,192,72258,5,0,0:0:0:0:
320,192,72451,5,0,0:0:0:0:
192,192,72645,5,0,0:0:0:0:
448,192,72838,5,0,0:0:0:0:
192,192,73225,5,0,0:0:0:0:
64,192,73419,5,0,0:0:0:0:
320,192,73806,5,0,0:0:0:0:
192,192,73999,5,0,0:0:0:0:
448,192,74193,5,0,0:0:0:0:
192,192,74387,5,0,0:0:0:0:
64,192,74516,5,0,0:0:0:0:
448,192,74967,5,0,0:0:0:0:
192,192,75290,5,0,0:0:0:0:
320,192,75548,5,0,0:0:0:0:
64,192,75741,5,0,0:0:0:0:
320,192,75935,5,0,0:0:0:0:
448,192,76258,5,0,0:0:0:0:
64,192,76516,5,0,0:0:0:0:
448,192,76903,5,0,0:0:0:0:
320,192,77096,5,0,0:0:0:0:
64,192,77225,5,0,0:0:0:0:
320,192,77419,5,0,0:0:0:0:
192,192,77612,5,0,0:0:0:0:
320,192,77999,5,0,0:0:0:0:
448,192,78645,5,0,0:0:0:0:
192,192,78838,5,0,0:0:0:0:
320,192,79032,5,0,0:0:0:0:
192,192,79354,5,0,0:0:0:0:
320,192,79548,5,0,0:0:0:0:
64,192,79741,5,0,0:0:0:0:
192,192,79935,5,0,0:0:0:0:
320,192,80129,5,0,0:0:0:0:
448,192,80322,5,0,0:0:0:0:
320,192,80516,5,0,0:0:0:0:
192,192,80709,5,0,0:0:0:0:
192,192,81290,5,0,0:0:0:0:
448,192,81483,5,0,0:0:0:0:
448,192,82064,5,0,0:0:0:0:
192,192,82258,5,0,0:0:0:0:
320,192,82451,5,0,0:0:0:0:
192,192,82838,5,0,0:0:0:0:
320,192,83032,5,0,0:0:0:0:
64,192,83612,5,0,0:0:0:0:
192,192,83806,5,0,0:0:0:0:
192,192,84387,5,0,0:0:0:0:
320,192,84580,5,0,0:0:0:0:
192,192,85161,5,0,0:0:0:0:
320,192,85354,5,0,0:0:0:0:
320,192,85935,5,0,0:0:0:0:
64,192,86129,5,0,0:0:0:0:
320,192,86258,5,0,0:0:0:0:
192,192,86516,5,0,0:0:0:0:
64,192,86903,5,0,0:0:0:0:
320,192,87419,5,0,0:0:0:0:
448,192,87612,5,0,0:0:0:0:
448,192,88193,5,0,0:0:0:0:
192,192,88387,5,0,0:0:0:0:
320,192,88580,5,0,0:0:0:0:
320,192,88967,5,0,0:0:0:0:
448,192,89161,5,0,0:0:0:0:
64,192,89741,5,0,0:0:0:0:
192,192,89935,5,0,0:0:0:0:
192,192,90516,5,0,0:0:0:0:
320,192,90709,5,0,0:0:0:0:
448,192,91290,5,0,0:0:0:0:
448,192,91483,5,0,0:0:0:0:
192,192,91677,5,0,0:0:0:0:
320,192,92064,5,0,0:0:0:0:
448,192,92258,5,0,0:0:0:0:
192,192,92645,5,0,0:0:0:0:
320,192,92838,5,0,0:0:0:0:
64,192,93032,5,0,0:0:0:0:
192,192,93612,5,0,0:0:0:0:
320,192,93806,5,0,0:0:0:0:
192,192,94451,5,0,0:0:0:0:
64,192,94580,5,0,0:0:0:0:
448,192,94774,5,0,0:0:0:0:
192,192,95161,5,0,0:0:0:0:
320,192,95354,5,0,0:0:0:0:
448,192,95741,5,0,0:0:0:0:
64,192,96129,5,0,0:0:0:0:
192,192,96580,5,0,0:0:0:0:
448,192,96709,5,0,0:0:0:0:
320,192,96838,5,0,0:0:0:0:
64,192,97032,5,0,0:0:0:0:
320,192,97225,5,0,0:0:0:0:
448,192,97419,5,0,0:0:0:0:
256,192,97612,12,0,99225,0:0:0:0:
192,192,99290,5,0,0:0:0:0:
448,192,99612,5,0,0:0:0:0:
192,192,99870,5,0,0:0:0:0:
64,192,99935,5,0,0:0:0:0:
320,192,100129,5,0,0:0:0:0:
192,192,100387,5,0,0:0:0:0:
448,192,100516,5,0,0:0:0:0:
64,192,100903,5,0,0:0:0:0:
320,192,101096,5,0,0:0:0:0:
448,192,101354,5,0,0:0:0:0:
320,192,101419,5,0,0:0:0:0:
64,192,101612,5,0,0:0:0:0:
192,192,101870,5,0,0:0:0:0:
448,192,102064,5,0,0:0:0:0:
320,192,102258,5,0,0:0:0:0:
64,192,102645,5,0,0:0:0:0:
320,192,102903,5,0,0:0:0:0:
448,192,102967,5,0,0:0:0:0:
448,192,103225,5,0,0:0:0:0:
192,192,103419,5,0,0:0:0:0:
64,192,103612,5,0,0:0:0:0:
64,192,103935,5,0,0:0:0:0:
320,192,104129,5,0,0:0:0:0:
448,192,104451,5,0,0:0:0:0:
320,192,104580,5,0,0:0:0:0:
320,192,104774,5,0,0:0:0:0:
64,192,104903,5,0,0:0:0:0:
192,192,105161,5,0,0:0:0:0:
320,192,105290,5,0,0:0:0:0:
448,192,105677,5,0,0:0:0:0:
64,192,105999,5,0,0:0:0:0:
320,192,106064,5,0,0:0:0:0:
320,192,106258,5,0,0:0:0:0:
192,192,106451,5,0,0:0:0:0:
64,192,106645,5,0,0:0:0:0:
64,192,107032,5,0,0:0:0:0:
320,192,107225,5,0,0:0:0:0:
192,192,107548,5,0,0:0:0:0:
64,192,107612,5,0,0:0:0:0:
320,192,107806,5,0,0:0:0:0:
192,192,107999,5,0,0:0:0:0:
448,192,108193,5,0,0:0:0:0:
448,192,108387,5,0,0:0:0:0:
64,192,108774,5,0,0:0:0:0:
320,192,109096,5,0,0:0:0:0:
448,192,109161,5,0,0:0:0:0:
448,192,109354,5,0,0:0:0:0:
64,192,109548,5,0,0:0:0:0:
192,192,109741,5,0,0:0:0:0:
448,192,110129,5,0,0:0:0:0:
192,192,110322,5,0,0:0:0:0:
64,192,110645,5,0,0:0:0:0:
192,192,110709,5,0,0:0:0:0:
448,192,110903,5,0,0:0:0:0:
320,192,111096,5,0,0:0:0:0:
192,192,111225,5,0,0:0:0:0:
64,192,111354,5,0,0:0:0:0:
64,192,111870,5,0,0:0:0:0:
320,192,112193,5,0,0:0:0:0:
448,192,112258,5,0,0:0:0:0:
64,192,112451,5,0,0:0:0:0:
192,192,112645,5,0,0:0:0:0:
448,192,112838,5,0,0:0:0:0:
320,192,113225,5,0,0:0:0:0:
64,192,113419,5,0,0:0:0:0:
320,192,113741,5,0,0:0:0:0:
448,192,113806,5,0,0:0:0:0:
192,192,113999,5,0,0:0:0:0:
320,192,114193,5,0,0:0:0:0:
64,192,114387,5,0,0:0:0:0:
320,192,114580,5,0,0:0:0:0:
448,192,114967,5,0,0:0:0:0:
64,192,115225,5,0,0:0:0:0:
192,192,115354,5,0,0:0:0:0:
192,192,115548,5,0,0:0:0:0:
448,192,115677,5,0,0:0:0:0:
192,192,115935,5,0,0:0:0:0:
64,192,116322,5,0,0:0:0:0:
448,192,116516,5,0,0:0:0:0:
192,192,116774,5,0,0:0:0:0:
320,192,116903,5,0,0:0:0:0:
320,192,117096,5,0,0:0:0:0:
64,192,117290,5,0,0:0:0:0:
448,192,117612,5,0,0:0:0:0:
192,192,118064,5,0,0:0:0:0:
64,192,118322,5,0,0:0:0:0:
192,192,118387,5,0,0:0:0:0:
448,192,118645,5,0,0:0:0:0:
320,192,118774,5,0,0:0:0:0:
64,192,119032,5,0,0:0:0:0:
448,192,119354,5,0,0:0:0:0:
192,192,119612,5,0,0:0:0:0:
64,192,119870,5,0,0:0:0:0:
320,192,119999,5,0,0:0:0:0:
448,192,120129,5,0,0:0:0:0:
64,192,120322,5,0,0:0:0:0:
320,192,120516,5,0,0:0:0:0:
448,192,120709,5,0,0:0:0:0:
64,192,121096,5,0,0:0:0:0:
320,192,121419,5,0,0:0:0:0:
448,192,121483,5,0,0:0:0:0:
192,192,121677,5,0,0:0:0:0:
64,192,121870,5,0,0:0:0:0:
320,192,122064,5,0,0:0:0:0:
192,192,122451,5,0,0:0:0:0:
320,192,122645,5,0,0:0:0:0:
64,192,122903,5,0,0:0:0:0:
192,192,123032,5,0,0:0:0:0:
192,192,123225,5,0,0:0:0:0:
320,192,123419,5,0,0:0:0:0:
448,192,123612,5,0,0:0:0:0:
192,192,123806,5,0,0:0:0:0:
192,192,124387,5,0,0:0:0:0:
64,192,124580,5,0,0:0:0:0:
320,192,125161,5,0,0:0:0:0:
448,192,125354,5,0,0:0:0:0:
192,192,125548,5,0,0:0:0:0:
64,192,125741,5,0,0:0:0:0:
320,192,125935,5,0,0:0:0:0:
448,192,126129,5,0,0:0:0:0:
320,192,126709,5,0,0:0:0:0:
192,192,126903,5,0,0:0:0:0:
320,192,127419,5,0,0:0:0:0:
448,192,127612,5,0,0:0:0:0:
192,192,128193,5,0,0:0:0:0:
320,192,128387,5,0,0:0:0:0:
448,192,128580,5,0,0:0:0:0:
320,192,128967,5,0,0:0:0:0:
64,192,129161,5,0,0:0:0:0:
192,192,129354,5,0,0:0:0:0:
448,192,129548,5,0,0:0:0:0:
320,192,129741,5,0,0:0:0:0:
64,192,129935,5,0,0:0:0:0:
192,192,130516,5,0,0:0:0:0:
448,192,130709,5,0,0:0:0:0:
192,192,131290,5,0,0:0:0:0:
192,192,131483,5,0,0:0:0:0:
448,192,131677,5,0,0:0:0:0:
64,192,132064,5,0,0:0:0:0:
320,192,132258,5,0,0:0:0:0:
448,192,133032,5,0,0:0:0:0:
64,192,133548,5,0,0:0:0:0:
448,192,133806,5,0,0:0:0:0:
64,192,134580,5,0,0:0:0:0:
448,192,135161,5,0,0:0:0:0:
64,192,135354,5,0,0:0:0:0:
192,192,136129,5,0,0:0:0:0:
64,192,136709,5,0,0:0:0:0:
320,192,136903,5,0,0:0:0:0:
320,192,137483,5,0,0:0:0:0:
192,192,137677,5,0,0:0:0:0:
448,192,137870,5,0,0:0:0:0:
320,192,138064,5,0,0:0:0:0:
64,192,138258,5,0,0:0:0:0:
192,192,138387,5,0,0:0:0:0:
320,192,138451,5,0,0:0:0:0:
320,192,138838,5,0,0:0:0:0:
192,192,138967,5,0,0:0:0:0:
64,192,139161,5,0,0:0:0:0:
192,192,139612,5,0,0:0:0:0:
320,192,139741,5,0,0:0:0:0:
64,192,139935,5,0,0:0:0:0:
448,192,140387,5,0,0:0:0:0:
192,192,140580,5,0,0:0:0:0:
64,192,140709,5,0,0:0:0:0:
320,192,140903,5,0,0:0:0:0:
64,192,141096,5,0,0:0:0:0:
320,192,141290,5,0,0:0:0:0:
64,192,141483,5,0,0:0:0:0:
448,192,141870,5,0,0:0:0:0:
64,192,142258,5,0,0:0:0:0:
320,192,142645,5,0,0:0:0:0:
64,192,142838,5,0,0:0:0:0:
448,192,143032,5,0,0:0:0:0:
320,192,143419,5,0,0:0:0:0:
320,192,143612,5,0,0:0:0:0:
64,192,143806,5,0,0:0:0:0:
320,192,143999,5,0,0:0:0:0:
64,192,144193,5,0,0:0:0:0:
448,192,144387,5,0,0:0:0:0:
192,192,144580,5,0,0:0:0:0:
64,192,144774,5,0,0:0:0:0:
448,192,144967,5,0,0:0:0:0:
320,192,145096,5,0,0:0:0:0:
448,192,145290,5,0,0:0:0:0:
192,192,145741,5,0,0:0:0:0:
320,192,146516,5,0,0:0:0:0:
448,192,146709,5,0,0:0:0:0:
64,192,146903,5,0,0:0:0:0:
192,192,147096,5,0,0:0:0:0:
448,192,147290,5,0,0:0:0:0:
320,192,147806,5,0,0:0:0:0:
64,192,148064,5,0,0:0:0:0:
448,192,148193,5,0,0:0:0:0:
192,192,148387,5,0,0:0:0:0:
64,192,148645,5,0,0:0:0:0:
320,192,148774,5,0,0:0:0:0:
64,192,149354,5,0,0:0:0:0:
448,192,149548,5,0,0:0:0:0:
320,192,149806,5,0,0:0:0:0:
192,192,150193,5,0,0:0:0:0:
64,192,150322,5,0,0:0:0:0:
320,192,150516,5,0,0:0:0:0:
192,192,150709,5,0,0:0:0:0:
448,192,150967,5,0,0:0:0:0:
320,192,151032,5,0,0:0:0:0:
192,192,151290,5,0,0:0:0:0:
448,192,151548,5,0,0:0:0:0:
192,192,151870,5,0,0:0:0:0:
448,192,152258,5,0,0:0:0:0:
192,192,152451,5,0,0:0:0:0:
64,192,152645,5,0,0:0:0:0:
320,192,152838,5,0,0:0:0:0:
192,192,153225,5,0,0:0:0:0:
320,192,153419,5,0,0:0:0:0:
64,192,153806,5,0,0:0:0:0:
192,192,153999,5,0,0:0:0:0:
320,192,154193,5,0,0:0:0:0:
448,192,154580,5,0,0:0:0:0:
64,192,154967,5,0,0:0:0:0:
320,192,155354,5,0,0:0:0:0:
448,192,155483,5,0,0:0:0:0:
64,192,155741,5,0,0:0:0:0:
192,192,155935,5,0,0:0:0:0:
64,192,156322,5,0,0:0:0:0:
448,192,156516,5,0,0:0:0:0:
192,192,156838,5,0,0:0:0:0:
448,192,157096,5,0,0:0:0:0:
64,192,157290,5,0,0:0:0:0:
320,192,157677,5,0,0:0:0:0:
448,192,158064,5,0,0:0:0:0:
320,192,158451,5,0,0:0:0:0:
192,192,158645,5,0,0:0:0:0:
448,192,158838,5,0,0:0:0:0:
64,192,159032,5,0,0:0:0:0:
192,192,159354,5,0,0:0:0:0:
448,192,159612,5,0,0:0:0:0:
192,192,159935,5,0,0:0:0:0:
320,192,160129,5,0,0:0:0:0:
64,192,160322,5,0,0:0:0:0:
320,192,160709,5,0,0:0:0:0:
448,192,161096,5,0,0:0:0:0:
192,192,161483,5,0,0:0:0:0:
64,192,161677,5,0,0:0:0:0:
448,192,161870,5,0,0:0:0:0:
192,192,162064,5,0,0:0:0:0:
64,192,162451,5,0,0:0:0:0:
448,192,162645,5,0,0:0:0:0:
192,192,162967,5,0,0:0:0:0:
64,192,163225,5,0,0:0:0:0:
192,192,163354,5,0,0:0:0:0:
320,192,163483,5,0,0:0:0:0:
448,192,163612,5,0,0:0:0:0:
64,192,163741,5,0,0:0:0:0:
64,192,164193,5,0,0:0:0:0:
320,192,164451,5,0,0:0:0:0:
448,192,164516,5,0,0:0:0:0:
192,192,164774,5,0,0:0:0:0:
64,192,164967,5,0,0:0:0:0:
320,192,165161,5,0,0:0:0:0:
448,192,165483,5,0,0:0:0:0:
64,192,165677,5,0,0:0:0:0:
320,192,165999,5,0,0:0:0:0:
448,192,166064,5,0,0:0:0:0:
448,192,166322,5,0,0:0:0:0:
64,192,166516,5,0,0:0:0:0:
192,192,166709,5,0,0:0:0:0:
320,192,166903,5,0,0:0:0:0:
448,192,167290,5,0,0:0:0:0:
64,192,167612,5,0,0:0:0:0:
192,192,167677,5,0,0:0:0:0:
192,192,167870,5,0,0:0:0:0:
448,192,168064,5,0,0:0:0:0:
64,192,168258,5,0,0:0:0:0:
320,192,168645,5,0,0:0:0:0:
192,192,168838,5,0,0:0:0:0:
64,192,169161,5,0,0:0:0:0:
320,192,169354,5,0,0:0:0:0:
64,192,169548,5,0,0:0:0:0:
448,192,169741,5,0,0:0:0:0:
192,192,169999,5,0,0:0:0:0:
320,192,170322,5,0,0:0:0:0:
192,192,170645,5,0,0:0:0:0:
448,192,170709,5,0,0:0:0:0:
448,192,170903,5,0,0:0:0:0:
64,192,171096,5,0,0:0:0:0:
192,192,171354,5,0,0:0:0:0:
192,192,171677,5,0,0:0:0:0:
448,192,171870,5,0,0:0:0:0:
64,192,172193,5,0,0:0:0:0:
192,192,172258,5,0,0:0:0:0:
192,192,172451,5,0,0:0:0:0:
448,192,172645,5,0,0:0:0:0:
320,192,172838,5,0,0:0:0:0:
320,192,173032,5,0,0:0:0:0:
64,192,173419,5,0,0:0:0:0:
320,192,173741,5,0,0:0:0:0:
192,192,173806,5,0,0:0:0:0:
192,192,173999,5,0,0:0:0:0:
448,192,174193,5,0,0:0:0:0:
192,192,174387,5,0,0:0:0:0:
192,192,174774,5,0,0:0:0:0:
320,192,174967,5,0,0:0:0:0:
448,192,175161,5,0,0:0:0:0:
192,192,175354,5,0,0:0:0:0:
64,192,175548,5,0,0:0:0:0:
320,192,175741,5,0,0:0:0:0:
448,192,175935,5,0,0:0:0:0:
448,192,176129,5,0,0:0:0:0:
192,192,176709,5,0,0:0:0:0:
320,192,176903,5,0,0:0:0:0:
192,192,177483,5,0,0:0:0:0:
64,192,177677,5,0,0:0:0:0:
320,192,177870,5,0,0:0:0:0:
192,192,178193,5,0,0:0:0:0:
448,192,178451,5,0,0:0:0:0:
320,192,178967,5,0,0:0:0:0:
192,192,179225,5,0,0:0:0:0:
192,192,179806,5,0,0:0:0:0:
320,192,179999,5,0,0:0:0:0:
192,192,180516,5,0,0:0:0:0:
448,192,180709,5,0,0:0:0:0:
192,192,180903,5,0,0:0:0:0:
64,192,180967,5,0,0:0:0:0:
448,192,181290,5,0,0:0:0:0:
320,192,181483,5,0,0:0:0:0:
192,192,181677,5,0,0:0:0:0:
448,192,181870,5,0,0:0:0:0:
320,192,182064,5,0,0:0:0:0:
64,192,182258,5,0,0:0:0:0:
64,192,182838,5,0,0:0:0:0:
448,192,183032,5,0,0:0:0:0:
192,192,183612,5,0,0:0:0:0:
64,192,183806,5,0,0:0:0:0:
320,192,183999,5,0,0:0:0:0:
448,192,184387,5,0,0:0:0:0:
192,192,184580,5,0,0:0:0:0:
448,192,185161,5,0,0:0:0:0:
192,192,185354,5,0,0:0:0:0:
64,192,185935,5,0,0:0:0:0:
320,192,186129,5,0,0:0:0:0:
448,192,186709,5,0,0:0:0:0:
448,192,186903,5,0,0:0:0:0:
320,192,187096,5,0,0:0:0:0:
192,192,187483,5,0,0:0:0:0:
320,192,187677,5,0,0:0:0:0:
192,192,188387,5,0,0:0:0:0:
448,192,188967,5,0,0:0:0:0:
64,192,189161,5,0,0:0:0:0:
192,192,189741,5,0,0:0:0:0:
448,192,189935,5,0,0:0:0:0:
192,192,190516,5,0,0:0:0:0:
64,192,190709,5,0,0:0:0:0:
64,192,191935,5,0,0:0:0:0:
320,192,192064,5,0,0:0:0:0:
320,192,192258,5,0,0:0:0:0:
320,192,192451,5,0,0:0:0:0:
448,192,192645,5,0,0:0:0:0:
64,192,192838,5,0,0:0:0:0:
192,192,193096,5,0,0:0:0:0:
320,192,193870,5,0,0:0:0:0:
64,192,194064,5,0,0:0:0:0:
320,192,194193,5,0,0:0:0:0:
192,192,194258,5,0,0:0:0:0:
448,192,194387,5,0,0:0:0:0:
64,192,194580,5,0,0:0:0:0:
320,192,195032,5,0,0:0:0:0:
192,192,195290,5,0,0:0:0:0:
64,192,195354,5,0,0:0:0:0:
448,192,195548,5,0,0:0:0:0:
64,192,195741,5,0,0:0:0:0:
320,192,195935,5,0,0:0:0:0:
192,192,196322,5,0,0:0:0:0:
320,192,196516,5,0,0:0:0:0:
64,192,196838,5,0,0:0:0:0:
192,192,196903,5,0,0:0:0:0:
192,192,197096,5,0,0:0:0:0:
448,192,197290,5,0,0:0:0:0:
320,192,197483,5,0,0:0:0:0:
320,192,197677,5,0,0:0:0:0:
64,192,198064,5,0,0:0:0:0:
192,192,198322,5,0,0:0:0:0:
320,192,198387,5,0,0:0:0:0:
320,192,198580,5,0,0:0:0:0:
448,192,198838,5,0,0:0:0:0:
192,192,198967,5,0,0:0:0:0:
64,192,199419,5,0,0:0:0:0:
320,192,199612,5,0,0:0:0:0:
448,192,199870,5,0,0:0:0:0:
320,192,199935,5,0,0:0:0:0:
320,192,200129,5,0,0:0:0:0:
64,192,200322,5,0,0:0:0:0:
192,192,200516,5,0,0:0:0:0:
192,192,200709,5,0,0:0:0:0:
448,192,201096,5,0,0:0:0:0:
192,192,201419,5,0,0:0:0:0:
320,192,201548,5,0,0:0:0:0:
320,192,201741,5,0,0:0:0:0:
64,192,201870,5,0,0:0:0:0:
192,192,202064,5,0,0:0:0:0:
448,192,202451,5,0,0:0:0:0:
192,192,202645,5,0,0:0:0:0:
448,192,202967,5,0,0:0:0:0:
320,192,203032,5,0,0:0:0:0:
320,192,203225,5,0,0:0:0:0:
64,192,203419,5,0,0:0:0:0:
192,192,203612,5,0,0:0:0:0:
192,192,203806,5,0,0:0:0:0:
320,192,204193,5,0,0:0:0:0:
192,192,204516,5,0,0:0:0:0:
64,192,204580,5,0,0:0:0:0:
64,192,204774,5,0,0:0:0:0:
320,192,204967,5,0,0:0:0:0:
448,192,205161,5,0,0:0:0:0:
320,192,205548,5,0,0:0:0:0:
192,192,205741,5,0,0:0:0:0:
320,192,206064,5,0,0:0:0:0:
192,192,206129,5,0,0:0:0:0:
192,192,206322,5,0,0:0:0:0:
64,192,206516,5,0,0:0:0:0:
192,192,206645,5,0,0:0:0:0:
320,192,206774,5,0,0:0:0:0:
64,192,206903,5,0,0:0:0:0:
448,192,207290,5,0,0:0:0:0:
320,192,207612,5,0,0:0:0:0:
192,192,207677,5,0,0:0:0:0:
192,192,207870,5,0,0:0:0:0:
448,192,207999,5,0,0:0:0:0:
320,192,208193,5,0,0:0:0:0:
64,192,208580,5,0,0:0:0:0:
320,192,208838,5,0,0:0:0:0:
64,192,209096,5,0,0:0:0:0:
192,192,209225,5,0,0:0:0:0:
192,192,209419,5,0,0:0:0:0:
448,192,209548,5,0,0:0:0:0:
320,192,209741,5,0,0:0:0:0:
320,192,209935,5,0,0:0:0:0:
64,192,210322,5,0,0:0:0:0:
320,192,210645,5,0,0:0:0:0:
192,192,210709,5,0,0:0:0:0:
192,192,210903,5,0,0:0:0:0:
448,192,211161,5,0,0:0:0:0:
320,192,211354,5,0,0:0:0:0:
64,192,211677,5,0,0:0:0:0:
192,192,211935,5,0,0:0:0:0:
448,192,212193,5,0,0:0:0:0:
320,192,212322,5,0,0:0:0:0:
320,192,212516,5,0,0:0:0:0:
64,192,212709,5,0,0:0:0:0:
192,192,212838,5,0,0:0:0:0:
192,192,213032,5,0,0:0:0:0:
448,192,213419,5,0,0:0:0:0:
320,192,213741,5,0,0:0:0:0:
192,192,213806,5,0,0:0:0:0:
192,192,213999,5,0,0:0:0:0:
448,192,214193,5,0,0:0:0:0:
320,192,214387,5,0,0:0:0:0:
64,192,214774,5,0,0:0:0:0:
192,192,214967,5,0,0:0:0:0:
448,192,215290,5,0,0:0:0:0:
320,192,215354,5,0,0:0:0:0:
320,192,215548,5,0,0:0:0:0:
192,192,215741,5,0,0:0:0:0:
64,192,215935,5,0,0:0:0:0:
192,192,216129,5,0,0:0:0:0:
192,192,216516,5,0,0:0:0:0:
320,192,216774,5,0,0:0:0:0:
64,192,216903,5,0,0:0:0:0:
448,192,217096,5,0,0:0:0:0:
192,192,217290,5,0,0:0:0:0:
448,192,217483,5,0,0:0:0:0:
320,192,217870,5,0,0:0:0:0:
448,192,218064,5,0,0:0:0:0:
64,192,218322,5,0,0:0:0:0:
192,192,218451,5,0,0:0:0:0:
320,192,218580,5,0,0:0:0:0:
448,192,218774,5,0,0:0:0:0:
192,192,218967,5,0,0:0:0:0:
64,192,219225,5,0,0:0:0:0:
192,192,219806,5,0,0:0:0:0:
448,192,219999,5,0,0:0:0:0:
320,192,220580,5,0,0:0:0:0:
64,192,220774,5,0,0:0:0:0:
448,192,220967,5,0,0:0:0:0:
320,192,221354,5,0,0:0:0:0:
192,192,221548,5,0,0:0:0:0:
192,192,222064,5,0,0:0:0:0:
192,192,222258,5,0,0:0:0:0:
448,192,222903,5,0,0:0:0:0:
192,192,223096,5,0,0:0:0:0:
448,192,223612,5,0,0:0:0:0:
448,192,223806,5,0,0:0:0:0:
64,192,223999,5,0,0:0:0:0:
192,192,224387,5,0,0:0:0:0:
320,192,224580,5,0,0:0:0:0:
320,192,225161,5,0,0:0:0:0:
192,192,225354,5,0,0:0:0:0:
320,192,225935,5,0,0:0:0:0:
192,192,226129,5,0,0:0:0:0:
192,192,226709,5,0,0:0:0:0:
320,192,226903,5,0,0:0:0:0:
448,192,227096,5,0,0:0:0:0:
64,192,227483,5,0,0:0:0:0:
448,192,227677,5,0,0:0:0:0:
320,192,227741,5,0,0:0:0:0:
64,192,227870,5,0,0:0:0:0:
192,192,228064,5,0,0:0:0:0:
448,192,228258,5,0,0:0:0:0:
448,192,228451,5,0,0:0:0:0:
192,192,229032,5,0,0:0:0:0:
448,192,229225,5,0,0:0:0:0:
64,192,229741,5,0,0:0:0:0:
448,192,229999,5,0,0:0:0:0:
320,192,230193,5,0,0:0:0:0:
192,192,230516,5,0,0:0:0:0:
320,192,230709,5,0,0:0:0:0:
448,192,231290,5,0,0:0:0:0:
320,192,231483,5,0,0:0:0:0:
448,192,232064,5,0,0:0:0:0:
320,192,232322,5,0,0:0:0:0:
320,192,232838,5,0,0:0:0:0:
320,192,233032,5,0,0:0:0:0:
64,192,233612,5,0,0:0:0:0:
192,192,233806,5,0,0:0:0:0:
320,192,233999,5,0,0:0:0:0:
320,192,234193,5,0,0:0:0:0:
320,192,234387,5,0,0:0:0:0:
320,192,234580,5,0,0:0:0:0:
64,192,235161,5,0,0:0:0:0:
448,192,235354,5,0,0:0:0:0:
64,192,236129,5,0,0:0:0:0:
192,192,236322,5,0,0:0:0:0:
448,192,236516,5,0,0:0:0:0:
64,192,236709,5,0,0:0:0:0:
320,192,236903,5,0,0:0:0:0:
448,192,236967,5,0,0:0:0:0:
192,192,237096,5,0,0:0:0:0:
64,192,237290,5,0,0:0:0:0:
192,192,237354,5,0,0:0:0:0:
448,192,237483,5,0,0:0:0:0:
320,192,237741,5,0,0:0:0:0:
256,192,237870,12,0,244645,0:0:0:0:
